TennisForum.com - View Single Post - Make your own GIF files

View Single Post

Old Feb 2nd, 2012, 08:22 AM   #13
country flag Kworb
Most Loved Member
 
Kworb's Avatar
 
Join Date: Jun 2005
Location: Netherlands
Posts: 11,055
Kworb has a reputation beyond repute Kworb has a reputation beyond repute Kworb has a reputation beyond repute Kworb has a reputation beyond repute Kworb has a reputation beyond repute Kworb has a reputation beyond repute Kworb has a reputation beyond repute Kworb has a reputation beyond repute Kworb has a reputation beyond repute Kworb has a reputation beyond repute Kworb has a reputation beyond repute
Re: Make your own GIF files

Quote:
Originally Posted by silverwhite View Post
Kworb

BTW, do you work or study? You have so many things going on here and on Pulse
Yes I work for a transport research company, doing programming, data processing, data analysis and mathematical modeling. but I work fast, so I can spend half a day doing real work and pretend it took me a whole day to do it, which means I have plenty of time for other stuff.

Quote:
Originally Posted by silverwhite View Post
Feedback

The programme seems to work fine for .flv files but not for .mp4 ones, for which this line keeps repeating

frame= 0 fps= 0 q=0.0 size= 0kB time=00:00:00.00 bitrate= 0.0kbits/s
frame= 0 fps= 0 q=0.0 size= 0kB time=00:00:00.00 bitrate= 0.0kbits/s
frame= 0 fps= 0 q=0.0 size= 0kB time=00:00:00.00 bitrate= 0.0kbits/s
I think that happens when it's a long video and it has to search for the right start time. Keep it running for a while, or try the first few seconds, and see if this is still a problem.

Quote:
Originally Posted by silverwhite View Post
Oh no. I've another problem.

The gif I made works when I open it in a web browser (but not in Preview). When I tried to upload it on Tumblr, it appears as a still image
That's because of Tumblr's size restrictions. I think they only allow 1 MB for gifs. I suggest uploading it to tinypic.com instead.
__________________
2014 saviors of the WTA

SERENA WILLIAMS 64 75 AGNIESZKA RADWANSKA 61 57 60 LAUREN DAVIS 60 76
CAMILA GIORGI 46 63 75 BOJANA JOVANOVSKI 63 36 75 VENUS WILLIAMS 64 76
AGNIESZKA RADWANSKA 62 62 EKATERINA MAKAROVA 64 62 ANA IVANOVIC 63 64
Kworb is offline View My Blog!   Reply With Quote