TennisForum.com - View Single Post - Make your own GIF files

View Single Post

Old Feb 2nd, 2012, 02:56 AM   #11
country flag silverwhite
Senior Member
 
silverwhite's Avatar
 
Join Date: May 2003
Location: Singapore
Posts: 88,995
silverwhite has a reputation beyond repute silverwhite has a reputation beyond repute silverwhite has a reputation beyond repute silverwhite has a reputation beyond repute silverwhite has a reputation beyond repute silverwhite has a reputation beyond repute silverwhite has a reputation beyond repute silverwhite has a reputation beyond repute silverwhite has a reputation beyond repute silverwhite has a reputation beyond repute silverwhite has a reputation beyond repute
Re: Make your own GIF files

Feedback

The programme seems to work fine for .flv files but not for .mp4 ones, for which this line keeps repeating

frame= 0 fps= 0 q=0.0 size= 0kB time=00:00:00.00 bitrate= 0.0kbits/s
frame= 0 fps= 0 q=0.0 size= 0kB time=00:00:00.00 bitrate= 0.0kbits/s
frame= 0 fps= 0 q=0.0 size= 0kB time=00:00:00.00 bitrate= 0.0kbits/s
__________________
#FakeFan

Quote:
Originally Posted by Inger67 View Post
I don't like Venus or Urszula
Quote:
Originally Posted by Inger67 View Post
If Ula can beat you 6-1, 6-3 then you know you're a mug
silverwhite is offline View My Blog!   Reply With Quote