TennisForum.com - View Single Post - Make your own GIF files

View Single Post
post #11 of (permalink) Old Feb 2nd, 2012, 02:56 AM
country flag silverwhite
Senior Member
 
silverwhite's Avatar
 
Join Date: May 2003
Location: Singapore
Posts: 92,469
                     
Re: Make your own GIF files

Feedback

The programme seems to work fine for .flv files but not for .mp4 ones, for which this line keeps repeating

frame= 0 fps= 0 q=0.0 size= 0kB time=00:00:00.00 bitrate= 0.0kbits/s
frame= 0 fps= 0 q=0.0 size= 0kB time=00:00:00.00 bitrate= 0.0kbits/s
frame= 0 fps= 0 q=0.0 size= 0kB time=00:00:00.00 bitrate= 0.0kbits/s
silverwhite is offline  
 
 
For the best viewing experience please update your browser to Google Chrome